#TITLE:Starmine;
#SUBTITLE:~Keidancer original~;
#ARTIST:Ryu*;
#TITLETRANSLIT:;
#SUBTITLETRANSLIT:;
#ARTISTTRANSLIT:;
#CREDIT:;
#BANNER:starmine-bn.png;
#BACKGROUND:starmine.png;
#LYRICSPATH:;
#CDTITLE:keidancer.png;
#MUSIC:starmine.mp3;
#OFFSET:-0.120;
#SAMPLESTART:36.390;
#SAMPLELENGTH:18.000;
#SELECTABLE:YES;
#BPMS:0.000=182.000;
#STOPS:;
#BGCHANGES:;
// cache tags:
#FIRSTBEAT:0.750;
#LASTBEAT:312.000;
#SONGFILENAME:Songs/Chilean Keyboard Megapack 3/(keidancer) Starmine/starmine.sm;
#HASMUSIC:1;
#HASBANNER:1;
#MUSICLENGTH:107.342;
// end cache tags

//---------------dance-single - Blank----------------
#NOTES:
     dance-single:
     Blank:
     Challenge:
     11:
     1.000,1.000,1.000,0.196,1.000,813.000,113.000,21.000,0.000,0.000:
0000
0000
0000
0020
0000
0000
0000
0000
0000
0000
0000
0000
0000
0000
0000
0000
,
0000
0030
0000
1001
0000
0010
0000
1001
0000
0100
0000
1001
0000
0100
0000
1001
,
0000
0010
0000
1001
0000
0010
0000
1001
0000
0100
0000
1001
0000
1000
0000
0000
,
1010
0000
0110
0000
0101
0000
1000
0100
1000
0000
0010
0000
0100
0000
0001
0100
,
0001
0000
0010
0000
0110
0000
1000
0100
1000
0000
0001
0000
1000
0100
1000
0000
,
0001
0100
0001
0100
0010
0000
1000
0000
0101
0000
0010
0000
1100
0000
0001
0000
,
0110
1000
0101
0010
0110
1000
0001
0110
,
1100
0000
1001
0000
0010
0000
1100
0000
0001
0000
0110
0000
1000
0100
1000
0000
,
0010
0100
0010
0000
1000
0100
0010
0000
0010
0001
0000
0010
0100
1000
0001
0100
,
0010
1000
0000
0000
1000
0000
0000
1000
0000
0000
1000
0000
0000
1000
0000
0000
,
1100
0000
0000
0000
0100
0000
0000
0100
0000
0000
0100
0000
0000
0100
0000
0000
,
0110
0000
0000
0000
0010
0000
0000
0010
0000
0000
0010
0000
0000
0010
0000
0000
,
0011
0000
0000
0000
0001
0000
0000
0001
0000
0000
0001
0000
0000
1000
0010
0000
,
0100
0001
0000
0000
1000
0000
0000
1000
0000
0000
1000
0000
0000
1000
0000
0000
,
1010
0000
0000
0000
0100
0000
0000
0100
0000
0000
0100
0000
0000
0100
0000
0000
,
0101
0000
0000
0000
0010
0000
0000
0010
0000
0000
0010
0000
0000
0010
0000
0000
,
0010
1000
1001
0101
1001
1010
0110
0101
,
0011
0110
0000
1100
0000
1001
0000
0101
,
0110
0000
1010
0000
1001
0101
0000
1010
,
0000
1100
0000
0110
0000
0011
0000
0110
,
1100
0000
1001
0000
0101
0110
1010
0110
,
0101
0011
1000
0101
1000
1100
0001
0110
,
1000
0101
0010
1100
0001
1010
0100
0011
,
0110
0000
2200
0000
0000
0000
0000
0000
3300
0000
2002
0000
0000
3003
0101
0000
,
0110
0000
0000
0000
1000
0000
0000
0001
0100
0000
0010
0000
1000
0000
0100
0000
,
0010
0000
0001
0010
0001
0010
0100
1000
0100
1000
0001
0100
0010
1000
0100
0010
,
0100
1000
0001
0100
0010
1000
0100
0010
0001
0100
0001
1000
0100
0010
0001
1000
,
0010
0100
0001
1000
0100
0010
0001
0100
0010
1000
0100
1000
0001
0100
0010
1000
,
0100
1000
0010
0100
0001
1000
0100
0010
0001
0000
0101
0000
0110
0000
1010
0000
,
0100
0000
0010
0100
0001
0010
0100
1000
0100
0010
0001
0100
0010
1000
0100
0010
,
0100
1000
0001
0100
0010
0100
0001
1000
0100
0010
0001
0010
0100
1000
0001
0100
,
0001
1000
0100
1000
0001
0100
0010
1000
0010
0100
0001
0010
0100
1000
0001
0100
,
0001
1000
0100
0010
0001
0100
0010
1000
0001
0000
0101
0000
0110
0000
1010
0000
,
0100
0000
0001
0010
0100
1000
0001
0100
0001
0010
0100
1000
0001
0100
0010
1000
,
0010
0100
0001
1000
0100
0010
0001
0100
0010
1000
0010
0100
0001
0010
0100
1000
,
0100
0010
0001
0100
0010
1000
0100
0010
0001
0010
0100
1000
0001
0010
0100
1000
,
0001
0100
0010
1000
0100
0010
0001
0100
0010
0000
1100
0000
0110
0000
0011
0000
,
1001
0000
0010
0100
0001
1000
0100
0010
0001
0100
0010
1000
0100
0010
0001
0100
,
0001
1000
0100
0010
0001
0100
0001
1000
0100
1000
0001
0100
0010
0100
0001
1000
,
0100
0010
0001
1000
0010
0100
0001
1000
0100
0010
0001
0010
0100
1000
0001
0100
,
0001
1000
0100
1000
0001
0100
0010
1000
0100
0000
0010
0000
0001
0000
0010
0000
,
0100
1001
0100
0010
1001
0100
0010
1010
,
0001
0110
1000
0100
0011
1000
0001
1010
,
0100
1001
0100
0010
1100
0010
0001
0010
,
0100
0000
1000
0100
0010
0001
1000
0100
0010
0001
0100
0010
1000
0001
0100
0010
,
1000
0100
1000
0000
0001
0000
0100
0010
1000
0000
0100
0000
0010
0001
0000
0100
,
0010
0000
1000
0000
0100
0000
0001
0010
0000
0100
1000
0000
0001
1000
0000
0100
,
0010
0000
0100
0000
1000
0000
0001
1000
0000
0001
0100
0000
0010
1000
0000
0100
,
0010
0000
0001
0000
0100
0000
0010
1000
0000
0001
0100
0000
0010
1000
0000
0001
,
0100
0000
1010
0000
0001
0000
0010
0100
0000
1000
0001
0000
0100
0010
0000
1000
,
0100
0000
0011
0000
0100
0000
0010
1000
0000
0100
0010
0000
0001
0100
0000
0010
,
1000
0000
0101
0000
0010
0000
1000
0100
0000
0010
0001
0000
0100
0010
0000
1000
,
0100
0000
0001
0100
0010
1000
0001
0100
0010
1000
0100
0010
0001
1000
0100
0010
,
0001
0000
0202
0000
0000
0303
0010
0000
0220
0000
0330
0000
1000
0000
0100
0000
,
0010
0000
2002
0000
0000
3003
0010
0000
0220
0000
0000
0000
0330
0000
0001
0000
,
0101
0000
0000
0100
0220
0000
0000
0330
,
0000
0000
1001
0000
0000
0000
1001
0000
0000
0000
1001
0000
0000
0010
0100
0000
,
1100
1001
0100
0010
0100
0010
0100
0010
,
1000
0001
1000
0001
1000
0001
0010
0100
,
1000
0000
2200
0000
0000
0000
0000
0000
3300
0000
2002
0000
0000
3003
0101
0000
,
0110
0000
0000
0000
1000
0000
0000
0001
0100
0000
0010
0000
1000
0000
0100
0000
,
0010
0000
0001
0010
0001
0010
0100
1000
0100
1000
0001
0100
0010
1000
0100
0010
,
0100
1000
0001
0100
0010
1000
0100
0010
0001
0100
0001
1000
0100
0010
0001
1000
,
0010
0100
0001
1000
0100
0010
0001
0100
0010
1000
0100
1000
0001
0100
0010
1000
,
0100
1000
0010
0100
0001
1000
0100
0010
0001
0000
0101
0000
0110
0000
1010
0000
,
0100
0000
0010
0100
0001
0010
0100
1000
0100
0010
0001
0100
0010
1000
0100
0010
,
0100
1000
0001
0100
0010
0100
0001
1000
0100
0010
0001
0010
0100
1000
0001
0100
,
0001
1000
0100
1000
0001
0100
0010
1000
0010
0100
0001
0010
0100
1000
0001
0100
,
0001
1000
0100
0010
0001
0100
0010
1000
0001
0000
0101
0000
0110
0000
1010
0000
,
0100
0000
0001
0010
0100
1000
0001
0100
0001
0010
0100
1000
0001
0100
0010
1000
,
0010
0100
0001
1000
0100
0010
0001
0100
0010
1000
0010
0100
0001
0010
0100
1000
,
0100
0010
0001
0100
0010
1000
0100
0010
0001
0010
0100
1000
0001
0010
0100
1000
,
0001
0100
0010
1000
0100
0010
0001
0100
0010
0000
1100
0000
0110
0000
0011
0000
,
1001
0000
0010
0100
0001
1000
0100
0010
0001
0100
0010
1000
0100
0010
0001
0100
,
0001
1000
0100
0010
0001
0100
0001
1000
0100
1000
0001
0100
0010
0100
0001
1000
,
0100
0010
0001
1000
0010
0100
0001
1000
0100
0010
0001
0010
0100
1000
0001
0100
,
0001
1000
0100
1000
0001
0100
0010
1000
0100
0000
0010
0000
0001
0000
0010
0000
,
0100
2002
0000
0000
0000
0000
0000
0000
,
3003
0000
0000
0000
;
